#TITLE:刀马旦;
#SUBTITLE:;
#ARTIST:李玟;
#TITLETRANSLIT:;
#SUBTITLETRANSLIT:;
#ARTISTTRANSLIT:;
#CREDIT:;
#BANNER:-LOGO.jpg;
#BACKGROUND:.jpg;
#LYRICSPATH:;
#CDTITLE:Lan.png;
#MUSIC:.mp3;
#OFFSET:-0.120;
#SAMPLESTART:70.000;
#SAMPLELENGTH:12.000;
#SELECTABLE:YES;
#BPMS:0.000=150.000;
#STOPS:;
#BGCHANGES:;
// cache tags:
#FIRSTBEAT:4.000;
#LASTBEAT:380.000;
#SONGFILENAME:Songs/lan sky//.sm;
#HASMUSIC:1;
#HASBANNER:1;
#MUSICLENGTH:155.383;
// end cache tags

//---------------dance-single - sky----------------
#NOTES:
     dance-single:
     sky:
     Hard:
     9:
     0.843,0.948,1.000,0.039,0.261,607.000,303.000,6.000,0.000,1.000:

0000
0000
0000
0000
,
1001
0000
0101
0010
1100
0000
0011
0100
,
1010
0000
0100
0000
0001
0000
0010
1100
,
0101
0000
0010
0000
1000
0000
0100
0011
,
1000
0100
0000
0101
1010
0000
0100
0000
,
0011
0000
1001
0100
1010
0000
1100
0010
,
0101
0000
0010
0000
1000
0000
0001
1010
,
0101
0000
0010
0000
0100
0000
1000
0100
,
0011
0000
0100
1000
0101
0000
1010
0100
0011
0000
1001
0100
1010
0100
0011
0100
,
1001
0000
0100
0011
1010
0000
1100
0000
,
0101
0000
0000
1000
0011
0000
0100
0010
,
1001
0000
0000
0010
1100
0000
0001
0010
,
1001
0000
0100
0010
1000
0000
0100
0000
0011
0000
0100
0010
1001
0000
0000
0100
,
1010
0000
0001
1100
0101
0000
0011
0000
,
1010
0000
0000
0001
1100
0000
0010
0100
,
0011
0000
0000
1000
1010
0000
0100
0001
,
1010
0000
0100
0010
1001
0000
0110
0000
1100
0000
0101
0000
0011
0000
0100
1000
,
0101
0000
0010
0000
0100
0000
1000
0100
0011
0000
0000
0000
0101
0000
0010
0000
,
1100
0000
0010
0000
0001
0000
0100
0010
1001
0000
0000
0000
1100
0000
0010
0000
,
0101
0000
0010
0000
1000
0000
0001
0010
1100
0000
0000
0000
0101
0000
0010
0000
,
1100
0000
0010
0100
0001
0000
0010
0000
1001
0000
0101
0000
0010
0000
0100
0010
,
1001
0000
0100
0000
0010
0000
0001
0010
1100
0000
0000
0000
0101
0000
0010
0000
,
1001
0000
0100
0000
0010
0000
1000
0100
0011
0000
0000
0000
1010
0000
0100
0000
,
1001
0000
0010
0000
1100
0000
0001
0010
0101
0000
0000
0000
1010
0000
0100
0000
,
0011
0000
0000
0100
1000
0000
0000
0000
0101
0000
0000
0000
0010
0100
0000
1000
,
1001
0000
0100
0000
0010
0000
0001
0010
1100
0000
0000
0000
1010
0000
0100
0000
,
0011
0000
0100
0000
1000
0000
0010
0100
0011
0000
0000
0000
1001
0000
0100
0000
,
0011
0000
0100
0000
1000
0000
1000
0100
0011
0000
0000
0000
0101
0000
0010
0000
,
1100
0000
0010
0100
0001
0000
0000
0000
0011
0000
1010
0000
0100
0000
0000
0010
,
1001
0000
0100
0000
0010
0000
0001
0100
0011
0000
0000
0000
1010
0000
0100
0000
,
1001
0000
0100
0000
0011
0000
0100
0010
1001
0000
0000
0000
1010
0000
0100
0000
,
0011
0000
0100
0000
1000
0000
0010
0100
1010
0000
0000
0000
0101
0000
0010
0000
,
1001
0100
0010
0001
0000
0000
0000
0000
1010
0000
0000
0000
0100
0001
0000
0010
,
1100
0000
0010
0000
0001
0000
1000
0100
0011
0000
0000
0000
0101
0000
0010
0000
,
1100
0000
0001
0000
0100
0000
1000
0100
0011
0000
0000
0000
1010
0000
0100
0000
,
0011
0000
0100
0000
1000
0000
0001
0010
1100
0000
0000
0000
0101
0000
0010
0000
,
1001
0000
0010
0100
0001
0000
0000
0000
0011
0000
1010
0000
1100
0000
0000
0010
,
1001
0000
0100
0000
0010
0000
1000
0100
0011
0000
0000
0000
0101
0000
0010
0000
,
1001
0000
0010
0000
0100
0000
0010
0100
1001
0000
0000
0000
1010
0000
0100
0000
,
0011
0000
0100
0000
0010
0000
1000
0100
0011
0000
0000
0000
0001
0000
1010
0000
,
1100
0010
0001
0100
0000
0000
0010
0000
0001
1000
0100
0010
1100
0000
0000
0000
,
0101
0000
1010
0110
0101
0000
0011
0100
,
1001
0000
0100
0010
1100
0000
0101
0011
,
1010
0000
0100
0001
0110
0000
1010
1001
,
0101
0000
0010
0100
1000
0000
0011
0000
1010
0100
0010
0001
1100
0000
0000
0010
,
1010
0000
0101
1100
0110
0000
0011
0100
,
1001
0000
0010
0100
0011
0000
1010
0110
,
0101
0000
1000
0100
0011
0000
1010
0100
,
1001
0000
0011
0100
1010
0000
0110
0000
1010
0000
0100
0000
0011
0000
0100
1000
,
0101
0000
0011
1010
0110
0000
1001
0010
,
1100
0000
0010
0100
0011
0000
1010
0110
,
0101
0000
0010
0100
1001
0000
0110
1010
,
0101
0000
0010
0100
1000
0000
0011
0000
1010
0100
0010
0001
0110
0000
0000
0001
,
1010
0000
0101
0110
1001
0000
0101
0010
,
1100
0000
0010
0100
0011
0000
1001
0101
,
0011
0000
0100
0010
1100
0000
1001
0100
,
0011
0000
1001
0010
1100
0000
0110
0000
0101
0000
0010
0000
1100
0000
0001
0010
,
1102
0000
0000
0000
0000
0000
0000
0000
0000
0000
0000
0000
0000
0000
0000
0003
,
1010
0000
0000
0000
0000
0100
0000
0000
0000
0000
1000
0000
0000
0000
0101
0000
,
0000
0020
0000
0000
,
0000
0000
0000
0000
,
0000
0000
0000
0030
2000
0000
0000
0000
0000
0000
0000
0000
0000
0000
0000
0000
,
0000
0000
0000
0000
0000
0000
0000
0000
0000
0000
0000
0000
0000
0000
0000
3000
,
0200
0000
0000
0000
,
0000
0300
0011
0000
0000
0000
0000
0000
0100
0000
0000
0000
0000
0000
1001
0000
,
0000
0020
0000
0000
,
0000
0000
0000
0000
0000
0000
0000
0000
0000
0000
0000
0000
0000
0000
0000
0030
,
0200
0000
0000
0000
,
0000
0000
0000
0000
,
0000
0000
0000
0000
,
0000
0000
0000
0000
0001
0010
1000
0310
0001
0010
0100
1000
0100
0010
0100
1000
,
0011
0000
1010
0101
0011
0000
0101
0110
,
1001
0100
0010
0101
1100
0000
0011
1010
,
1100
0000
0010
0100
0011
0000
1001
0101
,
1010
0000
0100
0010
0001
0000
0100
0000
1010
0000
0001
0010
1100
0000
0000
0010
,
1001
0000
1100
0101
0011
0000
0101
0010
,
1100
0001
0000
0110
1001
0000
0101
0011
,
1010
0100
0010
0101
0011
0000
1100
0010
,
0101
0000
0010
0100
1001
0000
0101
0000
0011
0000
1100
0000
1010
0000
0001
0010
,
1100
0000
0101
0011
1010
0000
0110
1000
,
0101
0000
0010
0100
1001
0000
0101
0110
,
1010
0000
0100
0010
0101
0000
0011
1100
,
1010
0000
0100
0010
0001
0000
0110
0000
1010
0100
0010
0001
1100
0000
0000
0100
,
0101
0000
0011
1010
1100
0000
1001
0100
,
0011
0000
0100
1000
0101
0000
0011
0110
,
1100
0000
0001
0100
1001
0000
0011
0100
,
1010
0000
1000
0010
0101
0000
0011
0000
1100
0000
0010
0000
0101
0000
0010
0100
,
1001
0000
0101
0110
1010
0000
1100
0010
,
0101
0000
0001
0010
1100
0000
0110
0011
,
1010
0000
0001
0100
1001
0000
1010
0101
,
0011
0000
1000
0100
0011
0000
1100
0000
0110
0001
0010
0100
1001
0000
0000
0100
,
0101
0000
0011
1010
0110
0000
1010
0100
,
0011
0000
0100
0010
1100
0000
0101
0011
,
1010
0000
0100
0001
0101
0000
1010
0100
,
1001
0000
0010
0100
0011
0000
1010
0000
0110
0000
0001
0000
1100
0000
0010
0100
,
0100
0000
0000
0000
;
